Media Player probleem

nicewithice

Jr. Member
Lid sinds
19 mrt 2012
Berichten
125
Waarderingsscore
7
Punten
18
Leeftijd
64
Ik ben in het bezit van een Octagon SF8008 sat receiver. Omdat ik niet alle filmen dadelijk kan bekijken die ik opneem zet ik ze over op een harde schijf om ze later dan op een andere lokatie te kunnen kijken. Maar de laatste tijd zijn er bepaalde filmen die ofwel niet openen ofwel waarbij de hele boel zwart wordt en blokkeert. En het zijn steeds filmen met een hoge resolutie. ( Van Canvas of EEN ). Let wel ik zet de TS files steeds om naar MP4 of MKV en verander de resolutie van 1080 naar 720, maar toch spelen ze niet. De mediaplayer is een Fantec, en heeft al wel een jaar of 10 achter de kiezen. Enig idee wat dit kan zijn ? Bedankt.
 

Nummer10

Addicted Member
Special Friend
Lid sinds
16 aug 2003
Berichten
3.971
Waarderingsscore
44
Punten
48
Leeftijd
55
Locatie
Ridderkerk
Misschien omdat het gecodeerd is?
 

Black Tiger

Addicted Member
Administrator
Moderator
Lid sinds
8 feb 2001
Berichten
33.350
Waarderingsscore
439
Punten
83
Leeftijd
58
Locatie
State Penitentiary
Kijk eens even op welke manier je ze converteert. Is dat naar H265 of H264? Het schijnt dat sommige players de nieuwere H265 niet aan kunnen en dan moet je H264 gebruiken.
Maar het kan ook zijn omdat er alleen met kaart gekeken kan worden. Canal Digitaal heeft dat ook een tijd gehad, of nog steeds, weet ik niet zeker.
 

nicewithice

Jr. Member
Lid sinds
19 mrt 2012
Berichten
125
Waarderingsscore
7
Punten
18
Leeftijd
64
Hoe kan ik zien of het origineel H264 of 265 is ? Ik gebruik Video Power red en dan convertern naar HD 720P, maar H264/265 is niet te bespeuren in de settings.
Tussen haakjes op mijn PC wordt alles wel afgespeeld, dus zijn ze niet gecodeerd dacht ik ?
 

nicewithice

Jr. Member
Lid sinds
19 mrt 2012
Berichten
125
Waarderingsscore
7
Punten
18
Leeftijd
64
Hier is de media info van het origineel bestand:

General
ID : 3225 (0xC99)
Complete name : C:\Users\Paul\Downloads\20220801 2257 - Canvas HD - The Godfather.ts
Format : MPEG-TS
File size : 4.82 GiB
Duration : 3 h 9 min
Overall bit rate mode : Variable
Overall bit rate : 3 634 kb/s

Video
ID : 516 (0x204)
Menu ID : 21030 (0x5226)
Format : AVC
Format/Info : Advanced Video Codec
Format profile : High@L4
Format settings : CABAC / 4 Ref Frames
Format settings, CABAC : Yes
Format settings, Reference : 4 frames
Codec ID : 27
Duration : 3 h 9 min
Bit rate : 3 293 kb/s
Width : 1 920 pixels
Height : 1 080 pixels
Display aspect ratio : 16:9
Frame rate : 25.000 FPS
Standard : Component
Color space : YUV
Chroma subsampling : 4:2:0
Bit depth : 8 bits
Scan type : Interlaced
Scan type, store method : Separated fields
Scan order : Top Field First
Bits/(Pixel*Frame) : 0.064
Stream size : 4.37 GiB (91%)
Encryption : TPS-Crypt or Viaccess
Color range : Limited
Color primaries : BT.709
Transfer characteristics : BT.709
Matrix coefficients : BT.709

Audio
ID : 104 (0x68)
Menu ID : 21030 (0x5226)
Format : MPEG Audio
Format version : Version 1
Format profile : Layer 2
Codec ID : 4
Duration : 3 h 9 min
Bit rate mode : Constant
Bit rate : 160 kb/s
Channel(s) : 2 channels
Sampling rate : 48.0 kHz
Frame rate : 41.667 FPS (1152 SPF)
Compression mode : Lossy
Delay relative to video : -668 ms
Stream size : 217 MiB (4%)
Language : Dutch
Encryption : TPS-Crypt or Viaccess

Other
ID : 36 (0x24)-100
Menu ID : 21030 (0x5226)
Format : Teletext
Language : Dutch

Menu
ID : 2730 (0xAAA)
Menu ID : 21030 (0x5226)
Duration : 3 h 9 min
List : 516 (0x204) (AVC) / 104 (0x68) (MPEG Audio, Dutch) / 36 (0x24)-100 (Teletext, nl)
Language : / Dutch / Dutch
 

nicewithice

Jr. Member
Lid sinds
19 mrt 2012
Berichten
125
Waarderingsscore
7
Punten
18
Leeftijd
64
OK ik heb het gevonden in Media Player properties, het is H264
Video: MPEG4 Video (H264) 1920x1080 25fps [V: h264 high L4.0, yuv420p, 1920x1080]
Audio: MPEG Audio 48000Hz stereo 160kbps [A: Dutch [dut] (mp2, 48000 Hz, stereo, 160 kb/s)]
 

Black Tiger

Addicted Member
Administrator
Moderator
Lid sinds
8 feb 2001
Berichten
33.350
Waarderingsscore
439
Punten
83
Leeftijd
58
Locatie
State Penitentiary
Met H264 zou het dus geen probleem moeten zijn.
Dan zal het vrijwel zeker de codering zijn die het euvel veroorzaakt.
 

nicewithice

Jr. Member
Lid sinds
19 mrt 2012
Berichten
125
Waarderingsscore
7
Punten
18
Leeftijd
64
Het vreemde is dat ze op de PC wel spelen, zonder enig probleem, TS en MP4 versies.
En nog vreemder, ik heb de filmen, die ik opgenomen heb van TV, in een apparte map staan op mijn HDD. De media speler crasht reeds als ik dat mapje open maak.
 

Tech

Addicted Member
Special Friend
Lid sinds
8 feb 2001
Berichten
648
Waarderingsscore
10
Punten
18
Leeftijd
60
Locatie
Doetinchem
Staan er bestanden in met vreemde tekens Of eindigend op ‘s of iets dergelijks?
 

nicewithice

Jr. Member
Lid sinds
19 mrt 2012
Berichten
125
Waarderingsscore
7
Punten
18
Leeftijd
64
Nee, de film heet Aus den nichts, geen vreemde tekens. Als ik hem verwijder spelen alle filmen wel, als ik hem er terug in plaats weer hetzelfde probleem. Ik heb hem ook reeds een andere naam gegeven, maar lukt ook niet. Ik probeer het morgen of zo eens bij een vriendin, die heeft een nieuwe smart tv met USB ingang.
 

Tech

Addicted Member
Special Friend
Lid sinds
8 feb 2001
Berichten
648
Waarderingsscore
10
Punten
18
Leeftijd
60
Locatie
Doetinchem
Hernoem dan die film eens via cli, het kan zijn dat er verborgen tekens in verwerkt zijn of misschien is het ook geen UTF8.
 

boudeman

New Member
Lid sinds
26 mrt 2022
Berichten
16
Waarderingsscore
8
Punten
3
Locatie
Duitsland
Opnames die ik wil bewaren in ts format voer ik toe in TS-Doctor en snijd overbodige stukken eruit. TS-Doctor bereinigt de stream maar converteert niet, en stelt daarmee de nieuwe ts file in originele kwaliteit ter beschikking. Die speel ik af in mijn mediaspeler.
Wat mij opvalt is dat bij diverse Canvas opnames TS-Doctor meldt dat er een stukje encrypted materiaal aanwezig is. Na verwijdering speelt de opname zonder artefact af. Deze melding heb ik nooit gehad bij opnames van UK, DE en NL zenders.
Ik gok erop dat zo'n stukje in een Canvas opname nog een residu kan zijn van een oude DRM beveiliging. Misschien dat jouw probleem hiermee samenhangt. Je zou een trial versie van TS-Doctor kunnen downloaden en zien of de ts file na bereiniging nog hetzelfde euvel vertoont.

Als je naar mp4 converteert alleen maar om de Fantec te kunnen laten spelen, zou ik een andere mediaspeler overwegen, die ts files wel kan afspelen. Ik heb jaren plezier gehad van een relatief goedkope Raspberry Pi met Kodi. De standaard Kodi speler speelt alles af, en ik vind het een plezierig programma.
 
  • Leuk
Waarderingen: Dr.Z


Bol 7 daagseBol 7 daagse
Bovenaan Onderaan